<?xml version="1.0" standalone="no"?>
<!DOCTYPE svg PUBLIC "-//W3C//DTD SVG 1.1//EN" "http://www.w3.org/Graphics/SVG/1.1/DTD/svg11.dtd">
<svg xmlns="http://www.w3.org/2000/svg">
<metadata>Copyright (C) 2025 by original authors @ fontello.com</metadata>
<defs>
<font id="wpdm-icons" horiz-adv-x="1000" >
<font-face font-family="wpdm-icons" font-weight="400" font-stretch="normal" units-per-em="1000" ascent="850" descent="-150" />
<missing-glyph horiz-adv-x="1000" />
<glyph glyph-name="shopping-cart" unicode="&#xe800;" d="M495 781c12 24 3 52-20 64s-52 3-63-20l-182-350-167 0c-35 0-63-28-63-62s28-63 63-63l101-405c14-56 64-95 121-95l555 0c57 0 107 39 121 95l102 405c34 0 62 28 62 63s-28 62-62 62l-168 0-181 350c-12 23-41 32-64 20s-32-40-20-64l160-306-455 0 160 306z m-120-525l0-187c0-17-14-31-31-31s-31 14-31 31l0 187c0 17 14 32 31 32s31-15 31-32z m188 32c17 0 31-15 31-32l0-187c0-17-14-31-31-31s-32 14-32 31l0 187c0 17 14 32 32 32z m250-32l0-187c0-17-15-31-32-31s-31 14-31 31l0 187c0 17 14 32 31 32s32-15 32-32z" horiz-adv-x="1125" />

<glyph glyph-name="circle-notch" unicode="&#xe801;" d="M435 787c10-33-9-68-42-77-155-47-268-190-268-360 0-207 168-375 375-375s375 168 375 375c0 170-113 313-268 360-33 9-52 44-42 77s45 52 78 42c206-61 357-252 357-479 0-276-224-500-500-500s-500 224-500 500c0 227 151 418 357 479 33 10 68-9 78-42z" horiz-adv-x="1000" />

<glyph glyph-name="spinner" unicode="&#xe802;" d="M594 756a94 94 0 1 1-188 0 94 94 0 1 1 188 0z m0-812a94 94 0 1 1-188 0 94 94 0 1 1 188 0z m-500 312a94 94 0 1 1 0 188 94 94 0 1 1 0-188z m906 94a94 94 0 1 1-187 0 94 94 0 1 1 187 0z m-721-354a94 94 0 1 1-132 133 94 94 0 1 1 132-133z m0 575a94 94 0 1 1-132 133 94 94 0 1 1 132-133z m442-575a94 94 0 1 1 133 133 94 94 0 1 1-133-133z" horiz-adv-x="1000" />

<glyph glyph-name="sun" unicode="&#xe803;" d="M734 812c-3 15-14 28-28 34s-32 5-45-4l-161-111-161 111c-13 9-30 11-45 5s-25-20-28-35l-35-193-192-35c-16-3-29-14-35-28s-5-32 4-45l111-161-111-161c-9-13-11-30-4-45s19-25 34-28l193-35 35-193c3-15 14-28 28-34s32-5 45 4l161 111 161-111c13-9 30-11 45-5s25 20 28 35l35 193 193 35c15 3 28 14 34 28s5 32-4 45l-111 161 111 161c9 13 11 30 5 45s-20 25-35 28l-193 35-35 193z m-207-177l128 88 28-152c3-20 18-35 38-38l152-28-88-128c-11-16-11-37 0-54l88-128-152-28c-20-3-35-18-38-37l-28-153-128 88c-16 11-37 11-54 0l-128-88-28 153c-3 19-18 34-37 37l-153 28 88 128c11 17 11 38 0 54l-88 128 153 28c19 3 34 18 37 38l28 152 128-88c17-11 38-11 54 0z m-27-504a219 219 0 1 1 0 438 219 219 0 1 1 0-438z m-125 219a125 125 0 1 0 250 0 125 125 0 1 0-250 0z" horiz-adv-x="1000" />

<glyph glyph-name="edit" unicode="&#xe804;" d="M708 812l-94-94 254-254 94 94c49 49 49 128 0 177l-77 77c-48 49-128 49-176 0z m-138-138l-455-456c-21-20-36-45-44-73l-69-235c-5-16 0-34 12-46s30-17 46-12l235 69c28 8 53 23 73 43l456 456-254 254z" horiz-adv-x="1000" />

<glyph glyph-name="eye" unicode="&#xe805;" d="M563 788c-158 0-285-72-377-158-91-85-152-186-181-256-7-15-7-33 0-48 29-70 90-171 181-256 92-86 219-158 377-158s284 72 376 158c91 85 152 186 181 256 7 15 7 33 0 48-29 70-90 171-181 256-92 86-219 158-376 158z m-282-438a281 281 0 1 0 563 0 281 281 0 1 0-563 0z m282 125c0-69-57-125-125-125-14 0-28 2-40 6-11 4-23-3-23-14 1-13 3-27 6-40 27-100 130-160 230-133s159 130 133 230c-22 81-94 135-173 139-12 0-18-12-15-23 4-13 7-26 7-40z" horiz-adv-x="1125" />

<glyph glyph-name="share" unicode="&#xe806;" d="M688 413c103 0 187 84 187 187s-84 188-187 188-188-84-188-188c0-8 0-16 1-23l-183-92c-34 33-80 53-130 53-104 0-188-84-188-188s84-187 188-187c50 0 96 19 130 52l183-92c-1-7-1-15-1-23 0-104 84-188 188-188s187 84 187 188-84 188-187 188c-51 0-97-20-131-53l-183 92c1 7 1 15 1 23s0 16-1 23l183 92c34-33 80-52 131-52z" horiz-adv-x="875" />

<glyph glyph-name="trash" unicode="&#xe807;" d="M264 815l-14-27-187 0c-35 0-63-28-63-63s28-62 63-62l750 0c34 0 62 27 62 62s-28 63-62 63l-188 0-14 27c-11 22-32 35-56 35l-235 0c-24 0-45-13-56-35z m549-215l-750 0 41-662c3-50 44-88 94-88l480 0c49 0 90 38 93 88l42 662z" horiz-adv-x="875" />

<glyph glyph-name="hdd" unicode="&#xe808;" d="M0 663c0 68 56 125 125 125l750 0c69 0 125-57 125-125l0-361c-33 30-77 48-125 48l-750 0c-48 0-92-18-125-48l0 361z m125-375l750 0c69 0 125-57 125-125l0-125c0-69-56-126-125-126l-750 0c-69 0-125 57-125 126l0 125c0 68 56 125 125 125z m500-250a63 63 0 1 1 0 125 63 63 0 1 1 0-125z m250 62a63 63 0 1 1-125 0 63 63 0 1 1 125 0z" horiz-adv-x="1000" />

<glyph glyph-name="layer-group" unicode="&#xe809;" d="M517 840c29 13 62 13 91 0l427-197c17-8 28-25 28-43s-11-35-28-43l-427-197c-29-13-62-13-91 0l-427 197c-17 8-27 25-27 43s10 35 27 43l427 197z m414-399l104-48c17-8 28-25 28-43s-11-35-28-43l-427-197c-29-13-62-13-91 0l-427 197c-17 8-27 25-27 43s10 35 27 43l104 48 296-137c46-22 99-22 145 0l296 137z m-296-387l296 137 104-48c17-8 28-25 28-43s-11-35-28-43l-427-197c-29-13-62-13-91 0l-427 197c-17 8-27 25-27 43s10 35 27 43l104 48 296-137c46-22 99-22 145 0z" horiz-adv-x="1125" />

<glyph glyph-name="paper-plane" unicode="&#xe80a;" d="M973 839c20-14 30-37 26-61l-125-812c-3-19-14-36-31-45s-37-11-55-3l-233 97-134-145c-17-19-45-25-69-16s-39 33-39 58l0 164c0 8 2 15 8 21l327 357c11 12 11 31-1 43s-30 12-43 1l-397-353-172 87c-21 10-34 31-35 54s12 44 31 56l875 500c21 12 47 11 67-3z" horiz-adv-x="1000" />

<glyph glyph-name="arrow-down" unicode="&#xe80b;" d="M331-69c24-25 64-25 88 0l313 312c24 25 24 64 0 89s-64 24-89 0l-205-206 0 599c0 35-28 63-63 63s-62-28-62-63l0-599-206 206c-25 24-64 24-89 0s-24-64 0-89l313-312z" horiz-adv-x="750" />

<glyph glyph-name="chat" unicode="&#xe80c;" d="M786 421q0-77-53-143t-143-104-197-38q-48 0-98 9-70-49-155-72-21-5-48-9h-2q-6 0-12 5t-6 12q-1 1-1 3t1 4 1 3l1 3t2 3 2 3 3 3 2 2q3 3 13 14t15 16 12 17 14 21 11 25q-69 40-108 98t-40 125q0 78 53 144t143 104 197 38 197-38 143-104 53-144z m214-142q0-67-40-126t-108-98q5-14 11-25t14-21 13-16 14-17 13-14q0 0 2-2t3-3 2-3 2-3l1-3t1-3 1-4-1-3q-2-8-7-13t-12-4q-28 4-48 9-86 23-156 72-50-9-98-9-151 0-263 74 32-3 49-3 90 0 172 25t148 72q69 52 107 119t37 141q0 43-13 85 72-39 114-99t42-128z" horiz-adv-x="1000" />

<glyph glyph-name="file-arrow-down" unicode="&#xe80e;" d="M125 850c-69 0-125-56-125-125l0-750c0-69 56-125 125-125l500 0c69 0 125 56 125 125l0 563-250 0c-35 0-62 27-62 62l0 250-313 0z m375 0l0-250 250 0-250 250z m-78-453l0-199 60 60c19 18 49 18 67 0s18-48 0-66l-141-141c-18-18-48-18-66 0l-141 141c-18 18-18 48 0 66s48 18 66 0l61-60 0 199c0 26 21 47 47 47s47-21 47-47z" horiz-adv-x="750" />

<glyph glyph-name="pause" unicode="&#xe812;" d="M94 725c-52 0-94-42-94-94l0-562c0-52 42-94 94-94l62 0c52 0 94 42 94 94l0 562c0 52-42 94-94 94l-62 0z m375 0c-52 0-94-42-94-94l0-562c0-52 42-94 94-94l62 0c52 0 94 42 94 94l0 562c0 52-42 94-94 94l-62 0z" horiz-adv-x="625" />

<glyph glyph-name="play" unicode="&#xe813;" d="M143 774c-29 18-66 18-95 2s-48-48-48-82l0-688c0-34 18-65 48-82s66-15 95 2l562 344c28 17 45 47 45 80s-17 63-45 80l-562 344z" horiz-adv-x="750" />

<glyph glyph-name="stop" unicode="&#xe815;" d="M906 350a406 406 0 1 1-812 0 406 406 0 1 1 812 0z m-906 0a500 500 0 1 0 1000 0 500 500 0 1 0-1000 0z m375 188l250 0c35 0 63-28 63-63l0-250c0-35-28-62-63-62l-250 0c-35 0-62 27-62 62l0 250c0 35 27 63 62 63z" horiz-adv-x="1000" />

<glyph glyph-name="user" unicode="&#xe817;" d="M779 100c-43 75-124 125-216 125l-125 0c-93 0-174-50-217-125 69-77 168-125 279-125s211 48 279 125z m-779 250a500 500 0 1 0 1000 0 500 500 0 1 0-1000 0z m500-31a141 141 0 1 1 0 281 141 141 0 1 1 0-281z" horiz-adv-x="1000" />

<glyph glyph-name="cart-arrow-down" unicode="&#xe818;" d="M47 850c-26 0-47-21-47-47s21-47 47-47l89 0c7 0 14-5 15-12l101-530c13-66 71-114 138-114l563 0c26 0 47 21 47 47s-21 47-47 47l-563 0c-22 0-42 16-46 38l-11 56 564 0c64 0 119 42 136 104l80 297c13 50-24 99-76 99l-334 0 0-200 45 45c18 18 48 18 66 0s19-48 0-66l-125-125c-18-19-48-19-66 0l-125 125c-18 18-18 48 0 66s48 18 66 0l45-45 0 200-374 0c-18 37-56 62-99 62l-89 0z m297-1000a94 94 0 1 1 0 188 94 94 0 1 1 0-188z m656 94a94 94 0 1 1-187 0 94 94 0 1 1 187 0z" horiz-adv-x="1125" />

<glyph glyph-name="credit-card" unicode="&#xe819;" d="M125 788c-69 0-125-57-125-125l0-63 1125 0 0 63c0 68-56 125-125 125l-875 0z m1000-375l-1125 0 0-375c0-69 56-126 125-126l875 0c69 0 125 57 125 126l0 375z m-906-250l125 0c17 0 31-15 31-32s-14-31-31-31l-125 0c-17 0-31 14-31 31s14 32 31 32z m219-32c0 17 14 32 31 32l250 0c17 0 31-15 31-32s-14-31-31-31l-250 0c-17 0-31 14-31 31z" horiz-adv-x="1125" />

<glyph glyph-name="parachute-box" unicode="&#xe81a;" d="M749 475c1 10 1 21 1 31 0 100-31 188-78 250-48 61-109 94-172 94s-124-33-171-94c-48-62-79-150-79-250 0-10 0-21 1-31l218 0 0-250-63 0c-13 0-26-3-38-8l-235 258 56 0c-1 10-1 21-1 31 0 125 43 237 111 311-178-63-263-206-291-306-5-19 10-36 29-36l12 0 274-301c-7-13-10-27-10-43l0-187c0-52 42-94 93-94l188 0c52 0 94 42 94 94l0 187c0 16-4 30-11 43l274 301 12 0c19 0 34 17 29 36-28 100-113 243-291 306 68-74 112-186 112-311 0-10-1-21-1-31l55 0-235-258c-11 5-25 8-38 8l-63 0 0 250 218 0z" horiz-adv-x="1000" />

<glyph glyph-name="crown" unicode="&#xe81b;" d="M604 643c22 14 37 38 37 66 0 44-35 79-78 79s-79-35-79-79c0-28 15-52 38-66l-112-224c-18-35-64-46-95-21l-174 140c9 13 15 29 15 46 0 44-35 79-78 79s-78-35-78-79 35-78 78-78c1 0 1 0 2 0l89-491c11-59 62-103 123-103l541 0c61 0 112 44 123 103l90 491c0 0 1 0 1 0 43 0 78 35 78 78s-35 79-78 79-78-35-78-79c0-17 6-33 15-46l-174-140c-31-25-77-14-95 21l-111 224z" horiz-adv-x="1125" />

<glyph glyph-name="logout" unicode="&#xe81c;" d="M738 643l240-240c14-14 22-33 22-53s-8-39-22-53l-240-240c-12-13-29-19-47-19-36 0-66 29-66 66l0 121-250 0c-35 0-62 28-62 63l0 125c0 34 27 62 62 62l250 0 0 121c0 37 30 67 66 67 18 0 35-7 47-20z m-425 20l-125 0c-35 0-63-28-63-63l0-500c0-35 28-62 63-62l125 0c34 0 62-28 62-63s-28-63-62-63l-125 0c-104 0-188 84-188 188l0 500c0 104 84 188 188 188l125 0c34 0 62-28 62-63s-28-62-62-62z" horiz-adv-x="1000" />

<glyph glyph-name="user-edit" unicode="&#xe81d;" d="M438 350a250 250 0 1 1 0 500 250 250 0 1 1 0-500z m-90-94c-192 0-348-156-348-348 0-32 26-58 58-58l573 0c-7 17-8 36-3 54l29 118c6 22 17 42 33 58l79 78c-63 61-148 98-242 98l-179 0z m851 134c-31 30-80 30-111 0l-57-58 139-138 57 57c30 30 30 80 0 111l-28 28z m-465-354c-8-8-13-18-16-30l-29-117c-3-11 0-22 8-30s19-11 29-8l118 29c11 3 21 9 29 17l252 252-138 139-253-252z" horiz-adv-x="1250" />

<glyph glyph-name="circle-down" unicode="&#xe81e;" d="M500-56a406 406 0 1 0 0 812 406 406 0 1 0 0-812z m0 906a500 500 0 1 1 0-1000 500 500 0 1 1 0 1000z m236-575c9 8 14 19 14 31 0 25-19 44-44 44l-112 0 0 188c0 34-28 62-63 62l-62 0c-35 0-63-28-63-62l0-188-112 0c-24 0-44-19-44-44 0-12 5-23 14-31l209-195c8-7 17-11 27-11s20 4 27 11l209 195z" horiz-adv-x="1000" />

<glyph glyph-name="envelope-open" unicode="&#xf2b6;" d="M1000 485v-546q0-37-26-63t-63-26h-822q-36 0-63 26t-26 63v546q0 8 6 13 5 4 22 20t23 20 26 21 39 31 53 40 80 60 108 79q2 2 29 22t40 29 36 20 38 10 39-10 36-20 39-29 29-22q62-45 108-79t80-60 54-40 39-31 25-21 23-20 22-20q6-5 6-13z m-315-326q147 106 193 140 6 5 7 12t-4 13l-21 29q-4 6-12 7t-13-4q-129-94-192-139-2-2-29-22t-39-29-36-20-39-10-38 10-36 20-40 29-29 22q-104 74-192 139-6 5-13 4t-12-7l-21-29q-5-6-4-13t7-12q46-34 193-140 5-5 28-22t36-26 36-22 43-19 42-6 42 6 44 20 36 22 37 26 26 21z" horiz-adv-x="1000" />
</font>
</defs>
</svg>
